<?xml version="1.0" standalone="no"?>
<!DOCTYPE svg PUBLIC "-//W3C//DTD SVG 1.1//EN" "http://www.w3.org/Graphics/SVG/1.1/DTD/svg11.dtd" >
<svg xmlns="http://www.w3.org/2000/svg">
<metadata>Generated by IcoMoon</metadata>
<defs>
<font id="icomoon" horiz-adv-x="1024">
<font-face units-per-em="1024" ascent="960" descent="-64" />
<missing-glyph horiz-adv-x="1024" />
<glyph unicode="&#x20;" horiz-adv-x="512" d="" />
<glyph unicode="&#xe900;" glyph-name="minus" d="M1023.993 504.879h-1023.986v-113.795h1023.986v113.795z" />
<glyph unicode="&#xe901;" glyph-name="coins" d="M617.935 51.539c0-35.747-20.95-63.114-54.461-86.247 180.157-52.595 450.421-2.095 450.421 90.479v61.018c-79.626-65.25-251.398-88.384-395.961-65.25l0.002-0.001zM617.935 194.617c0-12.614-4.173-25.228-8.388-35.747 6.302-12.614 8.388-25.228 8.388-39.981v-23.133c144.564-25.228 318.415 2.095 377.096 63.114 12.561 12.614 18.862 25.228 18.862 39.981v61.018c-12.561-10.519-29.338-21.038-48.201-29.462-90.060-42.117-232.532-52.636-347.756-35.788l-0.002-0.001zM617.935 339.789c0-12.614-4.173-25.228-8.388-35.747 6.302-10.519 8.388-23.133 8.388-35.747v-25.228c33.512-6.327 71.238-8.423 111.055-8.423 77.498 0 211.583 16.847 266.041 71.537 12.561 12.614 18.862 25.228 18.862 39.981v63.114c-12.561-10.519-29.338-21.038-48.201-29.462-90.060-48.445-232.532-58.964-347.756-40.021l-0.002-0.001zM731.074 663.782c-39.812 0-77.498-2.095-111.055-8.423v-23.133c0-14.709-2.087-27.366-8.388-39.981 10.475-23.133 8.388-39.981 8.388-79.96 0-25.228 2.087-39.981-8.388-63.114 10.475-21.038 8.388-39.981 8.388-63.114 138.258-23.133 318.415 2.095 377.096 63.114 12.561 12.614 18.862 25.228 18.862 39.981v65.209c-2.087 58.922-127.783 109.418-284.906 109.418l0.002 0.004zM573.951 116.798c-69.151-54.69-192.717-73.632-282.821-73.632-111.055 0-222.058 25.228-282.821 73.632v-61.018c0-61.018 127.783-111.521 282.821-111.521 150.817 0 282.821 48.403 282.821 111.521v61.018zM291.13 87.335c90.101 0 215.804 18.943 266.041 71.537 12.561 12.614 18.862 25.228 18.862 39.981v61.018c-113.14-94.671-442.030-100.999-565.644 0v-63.114c0-14.709 6.302-27.366 18.862-39.981 37.727-39.981 140.343-69.442 261.872-69.442h0.004zM27.171 303.993c92.187-96.766 442.030-92.574 530.051 0 12.561 12.614 18.862 25.228 18.862 39.981v58.922l-0.042 2.095c-117.308-98.861-444.114-98.861-565.644 0v-61.018c-2.087-14.709 4.215-29.462 16.777-39.981h-0.005zM27.171 447.072c90.101-92.574 435.776-96.766 530.051 0 12.561 12.614 18.862 25.228 18.862 39.981v61.018c-115.266-94.671-442.071-100.999-567.77 0 0-65.25-4.173-77.864 18.862-100.999h-0.006zM27.171 590.15c18.862-18.943 50.288-35.747 92.187-48.403 148.733-46.266 368.706-21.038 437.86 48.403 12.561 12.614 18.862 25.228 18.862 39.981v61.018c-121.53-96.807-446.251-96.807-567.77-0.042v-63.114c0-12.614 6.302-25.228 18.862-37.844h-0.004zM557.171 735.269c23.037 23.133 18.862 33.652 18.862 105.189 0 61.018-125.698 111.521-282.821 111.521-157.124-2.095-284.906-50.5-284.906-111.521v-67.304c0-14.709 6.302-27.366 18.862-39.981 92.187-94.671 439.945-92.574 530.008 2.095h-0.006z" />
<glyph unicode="&#xe902;" glyph-name="info" d="M511.993 960.007c-282.331 0-512-229.669-512-512s229.669-512 512-512c282.331 0 512 229.669 512 512s-229.669 512-512 512zM510.302 740.578h1.691c14.034 0 27.52-5.577 37.44-15.497s15.497-23.406 15.497-37.44c-0.046-29.212-23.725-52.845-52.937-52.845s-52.891 23.634-52.937 52.845c0 28.571 22.674 52.023 51.2 52.937h0.045zM438.85 557.722h73.143c20.206 0 36.571-16.366 36.571-36.572v-292.571h36.571c9.691 0 19.017-3.84 25.874-10.697s10.697-16.183 10.697-25.874c0-9.691-3.84-19.017-10.697-25.874s-16.183-10.697-25.874-10.697h-73.143c-20.206 0-36.571 16.365-36.571 36.571v292.571h-36.571c-20.206 0-36.571 16.365-36.571 36.571s16.365 36.571 36.571 36.571v0z" />
<glyph unicode="&#xe904;" glyph-name="alert" d="M993.657 223.67l-338.228 601.247c-36.312 64.533-87.244 100.045-143.417 100.045-56.223 0-107.155-35.511-143.462-100.045l-338.182-601.247c-36.134-64.267-40.133-126.805-11.288-176.174 28.845-49.289 85.378-76.445 159.107-76.445h667.648c73.778 0 130.265 27.155 159.107 76.445 28.845 49.334 24.844 111.91-11.288 176.174h0.004zM937.035 87.273c-13.956-23.822-47.156-37.423-91.156-37.423h-667.648c-44 0-77.245 13.689-91.156 37.423-13.956 23.867-9.556 59.512 11.955 97.823l338.182 601.247c21.467 38.090 48.71 59.911 74.845 59.911s53.378-21.823 74.755-59.911l338.182-601.247c21.555-38.311 25.911-73.956 12.045-97.823h-0.005zM512.014 252.513c-28.622 0-51.822-23.2-51.822-51.822 0-28.666 23.2-51.911 51.822-51.911 28.666 0 51.867 23.2 51.867 51.911 0 28.577-23.2 51.822-51.867 51.822zM512.014 628.162c-28.622 0-51.822-23.2-51.822-51.822 0-1.556 0.311-2.933 0.399-4.4h-0.266l20.666-251.153h0.178c1.333-15.91 14.577-28.533 30.844-28.533 16.311 0 29.512 12.578 30.888 28.533h0.178l20.666 251.153h-0.266c0.133 1.467 0.399 2.845 0.399 4.4 0 28.577-23.2 51.822-51.867 51.822h0.001z" />
<glyph unicode="&#xe905;" glyph-name="whatsapp" d="M874.299 810.466c-100.271 99.357-231.29 149.52-362.299 149.52s-262.037-50.159-362.299-149.52c-199.582-199.674-199.582-524.263 0-723.937 100.271-100.357 231.29-150.514 362.299-150.514s262.037 50.159 362.299 149.52c199.582 200.678 199.582 524.263 0 724.94v-0.010zM810.85 149c-79.841-78.838-186.267-122.877-298.852-122.877s-219.009 44.039-298.852 123.92c-164.804 164.879-164.804 432.106 0 596.985 79.841 79.838 186.267 122.836 298.852 122.836s219.009-44.039 298.852-123.92c163.76-163.794 163.76-432.106 0-596.944v0zM699.311 378.36c-19.43 19.439-45.018 19.439-64.489 0-15.353-15.36-30.705-29.679-45.018-45.039-1.039-1.040-2.039-2.040-3.079-2.040l-10.235-10.24c-3.079-2.040-6.157-2.040-9.196 0-9.196 5.12-20.47 9.2-29.665 15.36-44.019 27.639-80.84 62.478-112.585 102.397-16.393 19.439-30.705 40.959-40.94 64.518-2.039 4.080-2.039 7.16 1.039 10.24l10.235 10.24c1.039 1.040 1.039 1.040 2.039 2.040 4.078 4.080 9.196 9.2 13.314 13.32 10.235 10.24 20.47 20.479 30.705 31.759 20.47 20.479 20.47 45.039 0 66.558-11.275 12.28-23.548 23.559-35.823 35.839l-36.862 36.879c-19.43 19.439-45.018 19.439-64.489 0-15.353-15.36-29.665-30.719-45.018-45.039-14.313-13.32-21.509-29.679-23.548-50.159-2.039-31.759 5.118-61.438 16.393-90.117 22.508-60.398 56.292-113.681 97.232-162.791 55.252-66.558 121.777-118.801 199.582-156.678 34.783-17.4 71.645-29.679 110.548-31.759 26.627-1.040 51.175 5.12 69.606 26.639 13.314 14.32 27.626 27.639 40.94 41.999 20.47 20.479 20.47 45.039 0 65.518-21.549 22.439-46.138 46.999-70.685 70.558l-0.004-0.004z" />
<glyph unicode="&#xe909;" glyph-name="arrow-down-left" d="M0.455 906.48l152.457-0.070-0.312-710.015 763.565 763.565 107.796-107.796-763.565-763.565 709.981 0.348 0.070-152.457-970.405-0.451z" />
<glyph unicode="&#xe90a;" glyph-name="arrow-down-right" d="M1023.564 906.48l-152.457-0.070 0.312-710.015-763.565 763.565-107.796-107.796 763.565-763.565-709.981 0.348-0.070-152.457 970.405-0.451z" />
<glyph unicode="&#xe90b;" glyph-name="arrow-down" d="M1023.982 448.439l-80.504 80.428-374.585-374.901v806h-113.79v-806l-374.549 374.901-80.504-80.428 511.947-512.406z" />
<glyph unicode="&#xe90c;" glyph-name="arrow-left" d="M512.459-63.965l80.395 80.504-374.915 374.585h806.028v113.754h-806.028l374.915 374.585-80.395 80.504-512.424-511.985z" />
<glyph unicode="&#xe90d;" glyph-name="arrow-right" d="M511.561 959.965l-80.428-80.504 374.901-374.585h-806v-113.79h806l-374.901-374.549 80.428-80.504 512.406 511.947z" />
<glyph unicode="&#xe90e;" glyph-name="arrow-up-left" d="M0.491-10.511l152.426 0.105-0.312 710.063 763.591-763.618 107.765 107.769-763.591 763.618 710.039-0.312 0.105 152.431-970.474 0.417z" />
<glyph unicode="&#xe90f;" glyph-name="arrow-up-right" d="M1023.509-10.511l-152.426 0.105 0.312 710.063-763.591-763.618-107.765 107.769 763.591 763.618-710.039-0.312-0.105 152.431 970.474 0.417z" />
<glyph unicode="&#xe910;" glyph-name="arrow-Up" d="M0.035 447.541l80.504-80.395 374.585 374.915v-806.028h113.754v806.028l374.585-374.915 80.504 80.395-511.985 512.424z" />
<glyph unicode="&#xe911;" glyph-name="attach" d="M755.789 704.008v-409.601c0-141.153-109.381-255.976-243.805-255.976s-243.773 114.823-243.773 255.976v409.601c0 84.699 65.61 153.593 146.27 153.593s146.27-68.894 146.27-153.593v-409.601c0-28.211-21.87-51.208-48.767-51.208s-48.767 22.998-48.767 51.208v409.601h-97.502v-409.601c0-84.699 65.61-153.593 146.27-153.593 80.692 0 146.27 68.894 146.27 153.593v409.601c0 141.153-109.349 255.976-243.773 255.976s-243.805-114.823-243.805-255.976v-409.601c0-197.607 153.121-358.392 341.307-358.392s341.339 160.785 341.339 358.392v409.601h-97.534z" />
<glyph unicode="&#xe914;" glyph-name="bell" d="M632.489 49.81c0-62.872-53.917-113.792-120.489-113.792s-120.489 50.92-120.489 113.792v0zM511.981 959.982c198.784 0 361.429-153.605 361.429-341.342v0-312.857l150.572-199.1h-1023.966l150.572 199.1v312.857c0 187.737 162.646 341.342 361.39 341.342z" />
<glyph unicode="&#xe915;" glyph-name="bin" d="M860.415 703.963v-753.76c0-14.089-11.196-14.188-24.893-14.188v0h-647.094c-13.665 0-24.893 0.099-24.893 14.188v0 753.76h696.881zM462.22 550.406h-49.787v-409.594h49.787v409.594zM611.546 550.406h-49.787v-409.594h49.787v409.594zM621.854 959.985l99.541-102.416h163.923c13.698 0 24.893-22.931 24.893-37.020v0-65.362h-796.42v65.362c0 14.089 11.196 37.020 24.893 37.020v0h163.891l99.541 102.416h219.74zM601.227 908.777h-178.487l-49.787-51.208h278.060l-49.787 51.208z" />
<glyph unicode="&#xe916;" glyph-name="calendar-2" d="M729.61 903.089c25.752-0.247 46.722-19.263 48.873-43.344l0.18-4.572-0.765-71.488 146.998-0.035c54.727 0 99.094-42.484 99.094-94.89v-600.969c0-52.406-44.365-94.89-99.094-94.89h-825.775c-54.727 0-99.094 42.484-99.094 94.89v600.969c0 52.406 44.365 94.89 99.094 94.89l150.298 0.035 0.752 72.428c0.271 26.202 22.672 47.232 50.035 46.974 25.752-0.247 46.722-19.263 48.873-43.344l0.18-4.572-0.744-71.488h330.285l0.775 72.428c0.271 26.202 22.672 47.232 50.035 46.974zM924.894 426.494h-825.825l0.053-338.701h825.775l-0.004 338.701zM248.397 688.799l-149.274-0.037-0.053-167.38h825.825l0.004 167.38-147.966 0.037-0.676-66.311c-0.271-26.202-22.672-47.232-50.035-46.974-25.752 0.247-46.722 19.263-48.873 43.344l-0.18 4.572 0.668 65.371h-330.341l-0.641-66.311c-0.271-26.202-22.672-47.232-50.035-46.974-25.752 0.247-46.722 19.263-48.873 43.344l-0.18 4.572 0.632 65.371z" />
<glyph unicode="&#xe917;" glyph-name="camera" d="M665.593 846.211l102.417-101.037h51.208v25.235c0 13.904 11.516 25.267 25.571 25.267v0h51.208c14.056 0 25.605-11.364 25.605-25.267v0-25.235h76.779c14.089 0 25.605-11.397 25.605-25.267v0-656.824c0-13.904-11.516-25.267-25.605-25.267v0h-972.762c-14.089 0-25.605 11.364-25.605 25.267v0 656.824c0 13.872 11.516 25.267 25.605 25.267v0h230.405l102.384 101.037h307.184zM512 644.135c-141.417 0-255.976-113.085-255.976-252.642s114.559-252.642 255.976-252.642c141.417 0 256.008 113.085 256.008 252.642s-114.593 252.642-256.008 252.642zM512 543.069c84.831 0 153.593-67.825 153.593-151.573 0-83.715-68.762-151.605-153.593-151.605s-153.593 67.89-153.593 151.605c0 83.747 68.762 151.573 153.593 151.573z" />
<glyph unicode="&#xe918;" glyph-name="chevron-down" d="M121.899 740.562c-49.173 0.156-93.622-27.247-112.558-69.405-18.9-42.12-8.565-90.7 26.185-123.029l387.899-359.629c22.9-21.256 53.981-33.156 86.367-33.001h4.007c33.57-1.096 66.083 10.843 89.826 32.882l386.927 359.86c45.418 44.313 44.449 114.191-2.151 157.442-46.641 43.216-121.875 44.077-169.615 1.879l-305.536-283.568-305.532 283.568c-22.733 21.139-53.65 33.002-85.824 33.002h0.007z" />
<glyph unicode="&#xe919;" glyph-name="chevron-left" d="M804.554 838.090c0.156 49.172-27.246 93.619-69.403 112.555-42.119 18.899-90.697 8.565-123.026-26.184l-359.619-387.888c-21.255-22.899-33.155-53.979-33-86.365v-4.007c-1.096-33.569 10.843-66.081 32.881-89.823l359.85-386.916c44.312-45.417 114.188-44.448 157.438 2.151 43.215 46.64 44.076 121.872 1.879 169.61l-283.56 305.527 283.56 305.523c21.138 22.732 33.001 53.648 33.001 85.822v-0.007z" />
<glyph unicode="&#xe91a;" glyph-name="chevron-right" d="M219.446 57.91c-0.156-49.172 27.246-93.619 69.403-112.555 42.119-18.899 90.697-8.565 123.026 26.184l359.619 387.888c21.255 22.899 33.155 53.979 33 86.365v4.007c1.096 33.569-10.843 66.081-32.881 89.823l-359.85 386.916c-44.312 45.417-114.188 44.448-157.438-2.151-43.215-46.64-44.076-121.872-1.879-169.61l283.56-305.527-283.56-305.523c-21.138-22.732-33.001-53.648-33.001-85.822v0.007z" />
<glyph unicode="&#xe91b;" glyph-name="chevron-up" d="M902.090 155.446c49.172-0.156 93.619 27.246 112.555 69.403 18.899 42.119 8.565 90.697-26.184 123.026l-387.888 359.619c-22.899 21.255-53.979 33.155-86.365 33h-4.007c-33.569 1.096-66.081-10.843-89.823-32.881l-386.916-359.85c-45.417-44.312-44.448-114.188 2.151-157.438 46.64-43.215 121.872-44.076 169.61-1.879l305.527 283.56 305.523-283.56c22.732-21.138 53.648-33.001 85.822-33.001h-0.007z" />
<glyph unicode="&#xe91c;" glyph-name="Clock" d="M511.923 959.977c-282.37 0-511.901-229.693-511.901-512.064s229.529-511.901 511.901-511.901c282.535 0 512.064 229.529 512.064 511.901s-229.529 512.064-512.064 512.064zM720.347 239.489c-6.872-7.199-16.36-10.634-25.686-10.634s-18.487 3.435-25.686 10.634l-182.575 182.739c-6.872 6.872-10.962 16.033-10.962 25.686v381.348c0 20.123 16.36 36.482 36.482 36.482 19.96 0 36.482-16.36 36.482-36.482v-366.298l171.942-172.106c14.234-14.234 14.234-37.3 0-51.37z" />
<glyph unicode="&#xe91d;" glyph-name="cloud" d="M844.684 496.31c0 0.581 0.099 1.129 0.099 1.709 0 165.576-137.788 300.287-307.186 300.287-133.598 0-247.2-83.915-289.434-200.535-137.491-3.902-248.157-114.361-248.157-249.878 0-137.969 115.021-250.201 256.373-250.201h562.8c112.909 0 204.802 89.786 204.802 200.148 0 101.944-78.363 186.119-179.296 198.472z" />
<glyph unicode="&#xe91e;" glyph-name="cog" d="M512.015 305.775c-78.565 0-142.21 63.755-142.21 142.21 0 78.565 63.645 142.246 142.21 142.246 78.455 0 142.21-63.681 142.21-142.246 0-78.455-63.755-142.21-142.21-142.21v0zM1023.992 362.673v170.659l-126.812 14.078c-9.385 36.515-23.794 70.977-42.491 102.688l79.665 99.572-120.689 120.689-99.535-79.665c-31.749 18.734-66.174 33.069-102.725 42.527l-14.041 126.775h-170.696l-14.078-126.775c-36.588-9.458-71.012-23.794-102.688-42.527l-99.609 79.665-120.725-120.689 79.738-99.572c-18.734-31.675-33.069-66.174-42.527-102.688l-126.775-14.078v-170.659l126.775-14.078c9.458-36.588 23.794-71.012 42.527-102.688l-79.738-99.609 120.725-120.689 99.609 79.701c31.675-18.734 66.101-33.106 102.688-42.491l14.078-126.812h170.696l14.041 126.812c36.552 9.385 70.977 23.757 102.653 42.491l99.609-79.701 120.689 120.689-79.665 99.609c18.771 31.675 33.106 66.101 42.491 102.688l126.812 14.078z" />
<glyph unicode="&#xe91f;" glyph-name="comment" d="M682.668 391.107c-31.417 0-56.896 25.477-56.896 56.893s25.479 56.893 56.896 56.893c31.417 0 56.896-25.477 56.896-56.893s-25.479-56.893-56.896-56.893zM512.018 391.107c-31.417 0-56.896 25.477-56.896 56.893s25.479 56.893 56.896 56.893c31.417 0 56.858-25.477 56.858-56.893s-25.441-56.893-56.858-56.893zM341.332 391.107c-31.381 0-56.858 25.477-56.858 56.893s25.479 56.893 56.858 56.893c31.417 0 56.896-25.477 56.896-56.893s-25.479-56.893-56.896-56.893zM512.018 959.967c-282.79 0-511.986-229.223-511.986-511.967 0-141.39 57.299-269.363 149.936-362.035l-149.936-149.932h511.986c282.79 0 511.949 229.187 511.949 511.967 0 282.744-229.158 511.967-511.949 511.967z" />
<glyph unicode="&#xe920;" glyph-name="crop" d="M284.484 220.474v455.090h455.107v-455.090h-455.107zM853.348 220.474v483.502c0 47.070-38.311 85.343-85.346 85.343h-483.518v170.65h-113.795v-170.65h-170.656v-113.754h170.656v-483.538c0-47.070 38.275-85.343 85.346-85.343h483.518v-170.65h113.795v170.65h170.619v113.79h-170.619z" />
<glyph unicode="&#xe921;" glyph-name="document" d="M810.651 71.383c0-18.148-14.435-32.996-32.079-32.996h-533.176c-17.643 0-32.079 14.848-32.079 32.996v753.235c0 18.115 14.435 32.996 32.079 32.996h284.28c17.675 0 32.079-14.881 32.079-32.996v-190.024c0-18.148 14.435-32.996 32.079-32.996h184.74c17.643 0 32.079-14.848 32.079-32.996v-497.217zM634.219 936.672c-12.479 12.836-28.261 23.328-35.125 23.328h-428.344c-17.643 0-37.692-2.573-44.525-5.775-6.865-3.168-12.447-34.679-12.447-52.827v-906.797c0-18.148 2.503-38.771 5.613-45.799 3.048-7.061 33.715-12.803 51.357-12.803h682.501c17.611 0 37.66 2.607 44.493 5.741 6.865 3.168 12.479 34.712 12.479 52.86v625.209c0 18.148-10.233 43.489-22.712 56.324l-253.292 260.537z" />
<glyph unicode="&#xe922;" glyph-name="drawer" d="M810.679 857.584v-665.575h-193.697c0-51.208-47.285-102.384-102.271-102.384-54.952 0-102.271 51.175-102.271 102.384h-199.119v665.575h597.357zM910.223 934.396c0 14.121-11.132 25.604-24.893 25.604h-746.656c-13.763 0-24.893-11.483-24.893-25.604v-972.792c0-14.121 11.132-25.604 24.893-25.604h746.656c13.763 0 24.893 11.483 24.893 25.604v972.792z" />
<glyph unicode="&#xe923;" glyph-name="Calendar" d="M948.256 841.369h-127.719v67.438h-66.493v-67.438h-484.070v67.438h-66.493v-67.438h-127.719c-41.758 0-75.748-33.798-75.748-75.318v-703.514c0-41.52 33.992-75.318 75.748-75.318h872.489c41.758 0 75.748 33.798 75.748 75.318v703.514c0 41.52-33.992 75.318-75.748 75.318h0.005zM827.559 590.13c11.011 0 19.947-8.886 19.947-19.834v-102.875c0-10.948-8.937-19.834-19.947-19.834h-103.517c-11.011 0-19.947 8.886-19.947 19.834v102.875c0 10.948 8.937 19.834 19.947 19.834h103.517zM708.085 308.478c0 10.948 8.937 19.834 19.947 19.834h103.517c11.011 0 19.947-8.886 19.947-19.834v-102.875c0-10.948-8.937-19.834-19.947-19.834h-103.517c-11.011 0-19.947 8.886-19.947 19.834v102.875zM440.305 308.478c0 10.948 8.937 19.834 19.947 19.834h103.463c11.011 0 19.947-8.886 19.947-19.834v-102.875c0-10.948-8.937-19.834-19.947-19.834h-103.463c-11.011 0-19.947 8.886-19.947 19.834v102.875zM436.316 467.414v102.875c0 10.948 8.937 19.834 19.947 19.834h103.463c11.011 0 19.947-8.886 19.947-19.834v-102.875c0-10.948-8.937-19.834-19.947-19.834h-103.463c-11.011 0-19.947 8.832-19.947 19.834zM291.995 590.122c11.011 0 19.947-8.886 19.947-19.834v-102.875c0-10.948-8.937-19.834-19.947-19.834h-103.517c-11.011 0-19.947 8.886-19.947 19.834v102.875c0 10.948 8.937 19.834 19.947 19.834h103.517zM172.521 308.47c0 10.948 8.937 19.834 19.947 19.834h103.517c11.011 0 19.947-8.886 19.947-19.834v-102.875c0-10.948-8.937-19.834-19.947-19.834h-103.517c-11.011 0-19.947 8.886-19.947 19.834v102.875z" />
<glyph unicode="&#xe924;" glyph-name="education" d="M537.604 846.2l486.367-303.133-486.367-303.133-435.194 271.225v-303.524c15.276-8.758 25.604-24.843 25.604-43.5 0-17.647-9.205-33.146-23.129-42.166v0l48.732-84.135h-153.589l48.732 84.135c-13.923 9.019-23.161 24.517-23.161 42.166 0 18.656 10.361 34.742 25.604 43.5v0 335.433l486.4 303.133zM204.827 387.615l332.78-207.439 332.78 207.407v-142.32l-332.78-207.439-332.78 207.439v142.352z" />
<glyph unicode="&#xe925;" glyph-name="email" d="M0.017 669.853v-443.718c0-54.315 21.576-106.403 59.983-144.81s90.497-59.983 144.81-59.983h614.379c54.315 0 106.403 21.576 144.81 59.983 38.405 38.407 59.983 90.497 59.983 144.81v443.718c0 54.315-21.576 106.403-59.983 144.81-38.407 38.405-90.497 59.983-144.81 59.983h-614.379c-54.315 0-106.403-21.576-144.81-59.983-38.405-38.407-59.983-90.497-59.983-144.81zM819.189 157.87h-614.379c-18.106 0-35.469 7.191-48.27 19.994s-19.994 30.164-19.994 48.27v306.166l211.961-151.377c47.704-34.081 104.867-52.402 163.493-52.402s115.79 18.321 163.493 52.402l211.961 151.377v-306.166c0-18.106-7.191-35.469-19.994-48.27-12.802-12.803-30.164-19.994-48.27-19.994zM204.811 738.116h614.379c13.448 0.008 26.6-3.956 37.804-11.393 11.203-7.439 19.961-18.021 25.17-30.419l-286.027-204.793c-24.69-17.186-54.053-26.398-84.136-26.398s-59.444 9.213-84.136 26.398l-286.027 204.793c5.21 12.397 13.968 22.979 25.17 30.419s24.355 11.402 37.804 11.393z" />
<glyph unicode="&#xe928;" glyph-name="facebook" d="M731.895 628.408h-162.106v106.299c0 39.87 26.495 49.214 45.118 49.214h114.3v175.481l-157.498 0.576c-174.777 0-214.519-130.874-214.519-214.582v-116.988h-101.18v-180.729h101.18v-511.658h212.599v511.658h143.482l18.623 180.729z" />
<glyph unicode="&#xe92c;" glyph-name="flickr" d="M227.155 703.984c125.368 0 227.121-101.689 227.121-227.057s-101.753-227.057-227.121-227.057c-125.432 0-227.121 101.689-227.121 227.057s101.689 227.057 227.121 227.057zM796.871 703.984c125.432 0 227.121-101.689 227.121-227.057s-101.689-227.057-227.121-227.057c-125.368 0-227.057 101.689-227.057 227.057s101.689 227.057 227.057 227.057z" />
<glyph unicode="&#xe92d;" glyph-name="folder" d="M0.029 74.692c0-13.665 11.547-24.892 25.603-24.892h972.737c14.055 0 25.603 11.227 25.603 24.892v597.299c0 13.665-11.547 24.86-25.603 24.86h-537.557l-153.583 149.349h-281.596c-14.055 0-25.603-11.195-25.603-24.892v-746.616z" />
<glyph unicode="&#xe92e;" glyph-name="forward" horiz-adv-x="1008" d="M924.009 956.818h-190.156c-17.442 0-31.699-14.345-31.699-31.807v-386.883l-590.16 419.427c-3.717 1.558-7.761 2.417-12.011 2.417-17.524 0-31.699-14.223-31.699-31.807v-960.34c0-17.543 14.175-31.807 31.699-31.807 4.248 0 8.292 0.902 12.011 2.459l590.16 419.386v-386.883c0-17.46 14.257-31.807 31.699-31.807h190.156c17.402 0 31.699 14.345 31.699 31.807v954.029c0 17.46-14.297 31.807-31.699 31.807z" />
<glyph unicode="&#xe939;" glyph-name="instagram" d="M572.123 959.981c85.778-0.191 105.45-0.938 150.945-3.018 54.53-2.496 91.715-11.136 124.294-23.809 33.666-13.121 62.211-30.594 90.692-59.074s45.954-56.962 59.074-90.692c12.673-32.577 21.313-69.763 23.809-124.294 0.521-11.373 0.957-21.134 1.322-30.715l0.405-11.505c0.87-27.076 1.22-57.265 1.316-122.098v-93.503c-0.090-60.184-0.398-90.526-1.137-116.241l-0.374-11.633c-0.405-11.487-0.909-22.816-1.533-36.465-2.496-54.53-11.136-91.78-23.809-124.294-13.121-33.729-30.594-62.211-59.074-90.692s-57.026-46.017-90.692-59.074c-32.577-12.673-69.763-21.313-124.294-23.809-47.77-2.184-67.069-2.898-164.32-3.042h-93.523c-60.204 0.090-90.536 0.398-116.256 1.137l-11.634 0.374c-11.492 0.405-22.828 0.909-36.492 1.533-54.466 2.496-91.715 11.136-124.229 23.809-33.666 13.057-62.275 30.594-90.692 59.074-28.482 28.482-46.017 56.962-59.074 90.692-12.673 32.514-21.313 69.763-23.809 124.294-2.081 45.495-2.826 65.212-3.018 150.968v120.248c0.191 85.778 0.938 105.45 3.018 150.945 2.496 54.53 11.136 91.715 23.809 124.294 13.057 33.729 30.594 62.211 59.074 90.692 28.417 28.482 57.026 45.954 90.692 59.074 32.514 12.673 69.763 21.313 124.229 23.809 45.548 2.081 65.229 2.826 151.010 3.018zM543.746 867.794h-63.517c-73.577-0.066-105.231-0.398-133.621-1.31l-11.273-0.396c-9.402-0.357-19.015-0.783-30.268-1.29-49.922-2.304-76.995-10.625-95.044-17.665-23.937-9.281-40.962-20.353-58.882-38.274s-29.058-34.945-38.337-58.882c-6.977-18.049-15.296-45.122-17.6-95.044-0.416-9.003-0.777-16.955-1.089-24.591l-0.624-16.951c-0.915-28.39-1.223-60.045-1.283-133.621v-63.517c0.060-73.577 0.368-105.231 1.283-133.621l0.399-11.273c0.362-9.402 0.795-19.015 1.316-30.268 2.304-49.922 10.625-77.060 17.6-95.044 9.281-23.937 20.417-40.962 38.337-58.882s34.945-28.993 58.882-38.274c18.049-7.040 45.122-15.361 95.044-17.665 47.266-2.129 65.572-2.835 160.994-2.979h91.852c95.422 0.144 113.729 0.851 160.994 2.979 49.858 2.304 76.995 10.625 95.044 17.665 23.937 9.281 40.962 20.353 58.882 38.274s28.993 34.945 38.337 58.882c6.977 17.984 15.296 45.122 17.6 95.044 2.027 45.015 2.72 63.763 2.895 147.876v118.090c-0.176 84.113-0.869 102.861-2.895 147.876-2.304 49.922-10.625 76.995-17.6 95.044-9.344 23.937-20.417 40.962-38.337 58.882s-34.945 28.993-58.882 38.274c-18.049 7.040-45.186 15.361-95.044 17.665-11.253 0.507-20.866 0.933-30.268 1.29l-11.273 0.396c-28.39 0.912-60.045 1.244-133.621 1.31zM511.974 710.898c145.223 0 262.924-117.637 262.924-262.859 0-145.286-117.701-262.924-262.924-262.924s-262.924 117.637-262.924 262.924c0 145.223 117.701 262.859 262.924 262.859zM511.974 618.67c-94.276 0-170.695-76.419-170.695-170.631 0-94.276 76.419-170.695 170.695-170.695s170.695 76.419 170.695 170.695c0 94.212-76.419 170.631-170.695 170.631zM785.298 782.772c33.921 0 61.443-27.522 61.443-61.443s-27.522-61.443-61.443-61.443c-33.921 0-61.443 27.522-61.443 61.443s27.522 61.443 61.443 61.443z" />
<glyph unicode="&#xe93c;" glyph-name="link" d="M309.138 570.205l81.157-81.185-263.731-263.907 162.277-162.406 263.694 263.907 81.157-81.185-283.993-284.222c-16.23-16.245-37.823-25.2-60.859-25.2-22.998 0-44.627 8.954-60.859 25.2v0l-202.837 203c-16.23 16.245-25.142 37.891-25.142 60.907s8.911 44.663 25.142 60.907v0l283.993 284.183zM643.55 661.27l81.12-81.185-344.261-344.536-81.12 81.222 344.261 344.499zM674.259 935.629c32.463 32.489 89.254 32.489 121.716 0v0l202.837-203c16.23-16.245 25.179-37.855 25.179-60.907s-8.947-44.663-25.179-60.907v0l-284.030-284.183-81.082 81.185 263.694 263.907-162.277 162.406-263.694-263.944-81.12 81.222z" />
<glyph unicode="&#xe93d;" glyph-name="linkedin" d="M232.462 641.521v-660.302h-219.588v660.302h219.588zM771.225 657.035c144.387 0 252.742-94.339 252.742-297.222v0-378.568h-219.461v353.288c0 88.706-31.808 149.379-111.298 149.379-60.546 0-96.706-41.024-112.642-80.385-5.76-14.144-7.232-33.665-7.232-53.505v0-368.775h-219.461l0.029 6.218c0.006 1.355 0.014 2.921 0.021 4.691l0.057 12.981c0.21 48.366 0.681 163.475 0.95 283.052l0.077 37.837 0.060 37.699c0.009 6.248 0.017 12.471 0.023 18.66l-0.014 122.029c-0.119 68.682-0.471 121.042-1.203 137.133v0h219.461v-93.506c29.249 45.056 81.41 108.994 197.892 108.994zM124.087 960.010c75.138 0 121.347-49.345 122.755-114.178 0-63.297-47.617-114.115-124.162-114.115v0h-1.472c-73.602 0-121.219 50.817-121.219 114.115 0 64.833 49.089 114.178 124.099 114.178z" />
<glyph unicode="&#xe944;" glyph-name="pause" d="M307.83 959.951c18.404 0 33.526-14.435 33.526-32.003v-959.896c0-17.568-15.122-32.003-33.526-32.003h-201.118c-18.449 0-33.526 14.435-33.526 32.003v959.896c0 17.568 15.079 32.003 33.526 32.003h201.118zM917.288 959.951c18.449 0 33.526-14.435 33.526-32.003v-959.896c0-17.568-15.079-32.003-33.526-32.003h-201.118c-18.404 0-33.526 14.435-33.526 32.003v959.896c0 17.568 15.122 32.003 33.526 32.003h201.118z" />
<glyph unicode="&#xe946;" glyph-name="phone" d="M958.008 278.289c-6.341 1.503-12.903 2.457-19.686 2.457-0.294 0-0.55-0.073-0.88-0.073-96.889 12.17-187.51 44.504-267.462 92.82l-123.943-126.693c-91.611 61.769-171.012 144.325-232.783 229.63v0l124.126 126.729c-48.353 79.952-80.576 172.002-92.784 268.891 0 0.33 0.147 1.282 0.147 1.576 0 6.782-0.99 13.71-2.493 20.052-8.908 37.722-42.598 66.279-83.105 66.279h-173.505c-46.556 0-84.315-37.245-85.415-83.582 0-0.66-0.183-1.356-0.183-2.053 0-4.986 0.622-9.788 1.429-14.517 17.889-186.556 85.305-357.862 188.718-501.271 64.518-89.41 143.079-167.897 232.489-232.342 143.556-103.487 314.898-170.756 500.903-188.682 4.803-0.843 9.715-1.467 14.736-1.467 0.696 0 1.393 0.183 2.127 0.22 46.3 1.137 83.508 38.821 83.508 85.379v173.505c0 40.471-28.19 74.233-65.949 83.142z" />
<glyph unicode="&#xe947;" glyph-name="pin" d="M511.992 959.999c-188.49 0-341.328-150.976-341.328-337.166 0-67.121 30.912-171.117 63.209-224.777l278.119-462.043 278.119 462.043c32.295 53.658 63.209 157.657 63.209 224.777 0 186.191-152.839 337.166-341.328 337.166zM511.992 785.173c90.764 0 164.343-72.682 164.343-162.338s-73.579-162.338-164.343-162.338c-90.764 0-164.343 72.682-164.343 162.338s73.579 162.338 164.343 162.338z" />
<glyph unicode="&#xe948;" glyph-name="pinterest" d="M548.352 959.989c-279.482 0-420.344-200.316-420.344-367.416 0-101.182 38.207-191.163 120.381-224.7 13.44-5.503 25.6-0.192 29.44 14.719 2.752 10.303 9.151 36.352 12.031 47.231 3.904 14.719 2.431 19.903-8.448 32.767-23.68 27.967-38.783 64.062-38.783 115.325 0 148.669 111.166 281.723 289.53 281.723 157.948 0 244.73-96.509 244.73-225.403 0-169.597-75.070-312.761-186.493-312.761-61.566 0-107.518 50.943-92.799 113.342 17.664 74.494 51.903 154.876 51.903 208.7 0 48.126-25.792 88.318-79.294 88.318-62.91 0-113.47-65.087-113.47-152.253 0-55.551 18.816-93.054 18.816-93.054s-64.383-272.762-75.711-320.506c-22.464-95.165-3.391-211.771-1.728-223.548 0.895-6.976 9.919-8.64 14.016-3.328 5.695 7.552 80.638 100.030 106.174 192.444 7.168 26.176 41.344 161.725 41.344 161.725 20.479-39.040 80.19-73.342 143.677-73.342 189.051 0 317.369 172.348 317.369 403.064 0 174.46-147.772 336.953-372.345 336.953z" />
<glyph unicode="&#xe949;" glyph-name="play" d="M941.752 470.254l-3.358 2.419-675.649 484.859c-3.682 1.558-7.647 2.419-11.894 2.419-17.314 0-31.394-14.222-31.394-31.805v-960.29c0-17.583 14.078-31.805 31.394-31.805 4.248 0 8.212 0.902 11.894 2.419l679.007 487.278c5.542 5.737 9.063 13.566 9.063 22.254s-3.519 16.517-9.063 22.254z" />
<glyph unicode="&#xe94a;" glyph-name="plus" d="M1024.011 504.863h-455.115v455.115h-113.76v-455.115h-455.115v-113.796h455.115v-455.078h113.76v455.078h455.115z" />
<glyph unicode="&#xe94b;" glyph-name="printer" d="M796.434 163.566v-227.554h-568.869v227.554h568.869zM767.986 959.989c15.654 0 28.448-12.795 28.448-28.448v0-312.865h199.106c15.654 0 28.448-12.795 28.448-28.448v0-511.971c0-15.654-12.795-28.448-28.448-28.448v0h-142.207v142.207c0 15.618-12.831 28.412-28.448 28.412v0h-625.767c-15.618 0-28.448-12.795-28.448-28.412v0-142.207h-142.207c-15.654 0-28.448 12.795-28.448 28.448v0 511.971c0 15.654 12.795 28.448 28.448 28.448v0h199.106v312.865c0 15.654 12.795 28.448 28.448 28.448v0zM910.194 504.916h-113.795v-56.898h113.795v56.898zM739.536 903.092h-455.11v-284.416h455.11v284.416z" />
<glyph unicode="&#xe953;" glyph-name="search" d="M434.869 959.962c-139.218-0.065-270.034-66.795-351.875-179.526-81.772-112.657-104.695-257.769-61.645-390.23 43.050-132.455 146.882-236.249 279.299-279.305 132.486-42.997 277.508-20 390.124 61.86l216.654-216.711c26.657-26.732 69.91-26.732 96.567 0 26.657 26.664 26.657 69.863 0 96.523l-216.654 216.779c63.311 86.994 92.034 194.389 80.772 301.37-11.261 106.99-61.779 206.043-141.816 277.907-80.037 71.925-183.863 111.592-291.43 111.331h0.003zM434.869 226.159c-79.171 0-155.147 31.465-211.125 87.458s-87.436 131.987-87.436 211.181c0 79.193 31.455 155.187 87.436 211.181s131.953 87.458 211.125 87.458c79.171 0 155.147-31.465 211.125-87.458s87.436-131.987 87.436-211.181c-0.065-79.193-31.589-155.053-87.57-211.047s-131.819-87.526-210.987-87.595h-0.003z" />
<glyph unicode="&#xe955;" glyph-name="share" d="M840.516 237.259c-34.439 0-65.708-12.026-93.869-30.091l-409.914 225.83c0 6.041 3.109 12.026 3.109 15.075 0 2.992 0 12.026-3.109 15.075l409.914 225.772c25.051-18.066 59.43-30.091 93.869-30.091 87.591 0 156.469 66.224 156.469 150.572 0 84.291-68.817 150.572-156.469 150.572-87.591 0-156.469-66.224-156.469-150.572 0-6.041 0-9.033 3.109-15.075l-409.854-225.887c-25.051 18.066-56.321 30.091-93.869 30.091-87.591 0-156.469-66.224-156.469-150.572 0-84.291 68.817-150.572 156.469-150.572 34.439 0 65.708 12.026 93.869 30.091l409.914-225.83c0-6.041-3.109-9.033-3.109-15.075 0-84.291 68.817-150.572 156.469-150.572 87.591 0 156.469 66.224 156.469 150.572-0.059 84.403-68.934 150.688-156.529 150.688z" />
<glyph unicode="&#xe959;" glyph-name="star" d="M512 959.978l142.21-398.203h369.769l-312.87-227.549 117.317-398.203-316.425 227.549-316.425-227.549 117.317 398.203-312.87 227.549h369.769z" />
<glyph unicode="&#xe95c;" glyph-name="tick" d="M354.783 64.016l-354.76 363.355 80.836 82.702 273.926-280.541 588.36 602.451 80.836-82.777z" />
<glyph unicode="&#xe95d;" glyph-name="trolley" d="M370.7 163.579c62.987 0 114.066-50.956 114.066-113.792 0-62.798-51.079-113.756-114.066-113.756s-114.066 50.956-114.066 113.756c0 62.834 51.079 113.792 114.066 113.792zM798.363 163.579c62.987 0 114.066-50.956 114.066-113.792 0-62.798-51.079-113.756-114.066-113.756s-114.066 50.956-114.066 113.756c0 62.834 51.079 113.792 114.066 113.792zM142.616 959.967c40.716 0 79.192-28.119 91.466-66.831v0l14.993-46.924h713.243c21.645 0 41.268-10.741 52.513-28.668 11.171-18 12.164-40.289 2.61-59.683v0l-164.889-328.947c-11.098-22.473-35.83-37.796-61.297-37.796v0h-396.99l18.117-56.896h500.032v-113.756h-513.188c-40.754 0-79.229 28.119-91.503 66.831v0l-178.301 558.914h-129.391v113.756z" />
<glyph unicode="&#xe95f;" glyph-name="twitter" d="M1023.978 797.49c-37.63-16.703-78.141-27.966-120.635-33.087 43.39 25.983 76.669 67.197 92.413 116.22-40.638-24.063-85.628-41.535-133.434-50.942-38.334 40.83-92.989 66.302-153.337 66.302-116.028 0-210.104-94.011-210.104-210.039 0-16.447 1.855-32.511 5.44-47.87-174.585 8.767-329.458 92.348-433.006 219.447-18.047-30.975-28.415-67.070-28.415-105.595 0-72.892 37.054-137.147 93.436-174.84-34.431 1.087-66.813 10.56-95.163 26.303v-2.688c0-101.756 72.445-186.681 168.441-205.943-17.536-4.864-36.094-7.423-55.294-7.423-13.567 0-26.687 1.344-39.486 3.775 26.687-83.452 104.316-144.186 196.151-145.849-71.869-56.381-162.361-89.917-260.852-89.917-16.895 0-33.599 0.96-50.11 2.88 92.989-59.582 203.384-94.332 322.035-94.332 386.415 0 597.735 320.115 597.735 597.671 0 9.151-0.192 18.175-0.64 27.198 41.086 29.631 76.732 66.621 104.828 108.732z" />
<glyph unicode="&#xe961;" glyph-name="user" d="M1023.992 448c0 282.765-229.226 511.992-511.992 511.992s-511.992-229.226-511.992-511.992c0-282.765 229.226-511.992 511.992-511.992v0c282.765 0 511.992 229.226 511.992 511.992v0zM102.407 448c-0.001 0.394-0.002 0.86-0.002 1.327 0 226.212 183.381 409.593 409.593 409.593s409.593-183.381 409.593-409.593c0-96.212-33.174-184.677-88.706-254.579l0.646 0.841c-17.324 36.884-39.281 68.502-65.638 95.85l0.103-0.108c-38.602 38.986-86.153 69.039-139.322 86.826l-2.499 0.725c56.728 37.040 93.694 100.224 93.694 172.042 0 113.106-91.69 204.798-204.798 204.798s-204.798-91.69-204.798-204.798c0-71.818 36.967-135.001 92.909-171.56l0.785-0.481c-94.664-31.363-170.185-98.381-212.056-184.745l-0.932-2.133c-55.201 69.177-88.578 157.888-88.578 254.392 0 0.564 0.001 1.127 0.004 1.689v-0.086zM512 448c-56.553 0-102.398 45.846-102.398 102.398s45.846 102.398 102.398 102.398c56.553 0 102.398-45.846 102.398-102.398v0c0-56.553-45.846-102.398-102.398-102.398v0zM268.803 118.788c34.769 102.872 130.414 175.614 243.049 175.614 0.052 0 0.103 0 0.156 0h-0.008c70.812-0.016 134.903-28.781 181.239-75.257l0.006-0.006c27.54-28.033 48.795-62.335 61.424-100.561l0.526-1.837c-67.113-49.979-151.647-80.015-243.197-80.015s-176.084 30.036-244.286 80.79l1.090-0.775z" />
<glyph unicode="&#xe963;" glyph-name="vimeo" d="M0.011 652.84l41.536-54.527c0 0 85.822 67.583 114.43 33.856 28.543-33.856 137.661-441.975 174.14-517.237 31.744-66.111 119.486-153.405 215.676-91.006 96.19 62.334 415.799 335.289 473.078 657.586 57.15 322.234-384.76 254.779-431.479-25.984 116.99 70.271 179.324-28.543 119.549-140.349-59.775-111.677-114.302-184.573-142.909-184.573-28.543 0-50.559 74.751-83.199 205.436-33.856 135.038-33.664 378.424-174.205 350.841-132.477-26.047-306.617-234.043-306.617-234.043z" />
<glyph unicode="&#xe964;" glyph-name="volume-high" d="M512.149 959.982v-1023.965l-320.070 255.992h-64.022c-70.417 0-128.045 57.615-128.045 128.016v0 255.95c0 70.442 57.628 128.016 128.045 128.016v0h64.022l320.070 255.992zM874.235 810.045c199.657-199.612 199.657-524.438 0-724.092v0l-90.506 90.526c149.744 149.711 149.744 393.329 0 543.079v0zM674.506 674.296c124.744-124.799 124.744-327.794-0.042-452.594v0l-90.547 90.526c74.871 74.855 74.871 196.684 0 271.581v0z" />
<glyph unicode="&#xe965;" glyph-name="volume-low" d="M640.075 959.989v-1023.935l-320.048 255.984h-64.017c-70.411 0-127.994 57.614-127.994 128.012v0 255.942c0 70.44 57.583 128.012 127.994 128.012v0h64.017l320.048 255.984zM802.417 674.313c124.737-124.795 124.737-327.785-0.040-452.58v0l-90.5 90.524c74.826 74.853 74.826 196.679-0.040 271.573v0z" />
<glyph unicode="&#xe966;" glyph-name="volume-off" d="M455.663 899.742v-903.493l-283.575 225.873h-56.929c-62.654 0-115.14 50.837-115.14 112.955v0 225.837c0 62.155 52.487 112.955 115.14 112.955v0h56.929l283.575 225.873zM943.449 671.44l80.528-79.841-144.834-143.595 144.834-143.595-80.528-79.841-144.834 143.595-144.834-143.595-80.565 79.841 144.871 143.595-144.871 143.595 80.565 79.841 144.834-143.595 144.834 143.595z" />
<glyph unicode="&#xe968;" glyph-name="cross" d="M1023.989 879.554l-80.434 80.434-431.536-431.536-431.536 431.536-80.47-80.434 431.574-431.536-431.574-431.536 80.47-80.47 431.536 431.536 431.536-431.536 80.434 80.47-431.536 431.536z" />
<glyph unicode="&#xe969;" glyph-name="youtube" d="M406.282 339.081v287.719l276.648-144.372-276.648-143.347zM1013.718 676.588c0 0-9.983 70.522-40.701 101.624-38.908 40.828-82.553 41.020-102.584 43.388-143.284 10.367-358.241 10.367-358.241 10.367h-0.448c0 0-214.894 0-358.177-10.367-20.031-2.368-63.611-2.56-102.584-43.388-30.717-31.101-40.701-101.624-40.701-101.624s-10.24-82.872-10.24-165.682v-77.689c0-82.872 10.24-165.746 10.24-165.746s9.983-70.522 40.701-101.624c38.973-40.765 90.105-39.484 112.886-43.772 81.913-7.807 348.131-10.24 348.131-10.24s215.149 0.319 358.433 10.687c20.031 2.368 63.674 2.56 102.584 43.324 30.717 31.101 40.701 101.624 40.701 101.624s10.24 82.872 10.24 165.746v77.689c0 82.809-10.24 165.682-10.24 165.682v0z" />
<glyph unicode="&#xe96a;" glyph-name="youtube-logo" d="M836.915 482.943c103.292 0 187.065-83.836 187.065-187.128v0-150.394c0-103.227-83.773-187.065-187.065-187.065v0h-649.892c-103.292 0-187 83.836-187 187.065v0 150.394c0 103.292 83.708 187.128 187 187.128v0zM788.084 331.269c-23.231 0-42.046-7.104-56.702-21.184-14.719-14.143-22.015-32.574-22.015-54.974v0-116.412c0-25.023 6.784-44.607 20.032-58.749 13.312-14.335 31.614-21.376 54.782-21.376 25.791 0 45.246 6.655 58.109 19.967 13.12 13.504 19.583 33.599 19.583 60.158v0 13.312h-53.309v-11.839c0-15.232-1.792-25.023-5.119-29.567-3.456-4.48-9.472-6.72-18.047-6.72-8.256 0-14.143 2.623-17.599 7.872-3.328 5.311-5.056 14.783-5.056 28.415v0 48.83h99.132v66.11c0 24.575-6.4 43.39-19.135 56.51-12.671 13.055-30.911 19.648-54.653 19.648zM398.149 324.806h-51.838v-216.694c0-15.487 3.072-26.943 9.088-34.686 6.144-7.807 15.040-11.584 27.135-11.584 9.664 0 19.711 2.688 30.015 8.32 10.432 5.44 20.351 13.439 29.886 23.934v0-28.479h51.838v259.189h-51.838v-196.856c-4.864-5.632-10.176-10.24-16.063-13.951-5.824-3.648-10.687-5.376-14.399-5.376-4.8 0-8.383 1.279-10.624 4.159-2.112 2.688-3.199 7.104-3.199 13.247v0 198.776zM585.597 416.962h-52.414v-351.345h52.414v19.903c6.72-7.999 14.207-13.823 22.144-17.599 7.872-3.775 16.895-5.568 27.071-5.568 15.295 0 27.135 4.8 35.199 14.591 8.191 9.856 12.16 23.934 12.16 42.174v0 143.866c0 21.184-4.224 37.374-12.928 48.446-8.64 11.071-21.119 16.511-37.566 16.511-8.064 0-16-1.984-23.934-6.144-7.744-4.096-15.167-10.176-22.144-17.983v0 113.148zM323.592 416.962h-179.193v-51.070h60.35v-300.275h58.43v300.275h60.413v51.070zM607.253 286.809c6.912 0 12.352-2.239 16.127-6.72 3.712-4.543 5.44-11.136 5.44-19.967v0-133.818c0-8.32-1.536-14.143-4.416-17.855-3.007-3.712-7.68-5.568-14.015-5.568-4.416 0-8.512 1.024-12.479 2.815-4.032 1.792-8.128 5.056-12.352 9.151v0 161.53c3.583 3.583 7.039 6.271 10.687 7.936s7.296 2.496 11.008 2.496zM785.876 285.933c7.872 0 13.759-2.368 17.279-7.168 3.52-4.608 5.376-12.415 5.376-23.296v0-26.175h-45.759v26.175c0 10.879 1.728 18.688 5.376 23.296 3.583 4.8 9.472 7.168 17.728 7.168zM505.831 865.621c24.126 0 43.839-6.912 59.39-20.735 15.295-13.696 22.975-31.679 22.975-53.374v0-147.45c0-24.447-7.488-43.518-22.591-57.533-15.167-13.888-35.967-20.8-62.462-20.8-25.535 0-45.951 7.168-61.245 21.568-15.232 14.399-22.912 33.599-22.912 57.854v0 148.026c0 22.144 7.872 39.742 23.487 52.798 15.679 13.12 36.862 19.648 63.357 19.648zM693.726 858.382v-218.871c0-6.72 1.408-11.584 3.775-14.591 2.368-3.072 6.463-4.543 11.903-4.543 4.224 0 9.727 1.984 16.255 5.952 6.528 4.096 12.544 9.151 17.983 15.359v0 216.694h58.366v-285.492h-58.366v31.679c-10.687-11.647-21.887-20.608-33.599-26.622-11.584-6.016-22.847-9.216-33.791-9.216-13.567 0-23.615 4.351-30.527 12.928-6.784 8.383-10.24 21.119-10.24 38.142v0 238.581h58.238zM260.113 959.978l42.622-154.745h4.096l40.702 154.745h66.686l-76.477-226.486v-160.57h-65.597v153.337l-78.205 233.719h66.173zM502.951 816.15c-7.039 0-12.863-1.855-17.344-5.695-4.416-3.904-6.655-8.896-6.655-15.167v0-155.513c0-7.872 2.112-13.823 6.271-18.112 4.096-4.416 10.048-6.463 17.728-6.463 7.936 0 14.207 2.176 18.815 6.528 4.672 4.351 7.039 10.432 7.039 18.047v0 155.513c0 6.271-2.368 11.263-7.104 15.167-4.735 3.84-11.008 5.695-18.751 5.695z" />
<glyph unicode="&#xe96b;" glyph-name="cross-2" d="M38.477 160.246l761.268 761.268c51.297 51.297 134.466 51.297 185.764 0s51.297-134.466 0-185.764l-761.268-761.268c-51.297-51.297-134.466-51.297-185.764 0s-51.297 134.466 0 185.764zM224.241 921.511l761.268-761.268c51.297-51.297 51.297-134.466 0-185.764s-134.466-51.297-185.764 0l-761.268 761.268c-51.297 51.297-51.297 134.466 0 185.764s134.466 51.297 185.764 0z" />
</font>
</defs>
</svg>
